Навигация
Поиск
Рассылка



Отписаться
Экспорт новостей в RSS

наши новости в rss-формате

откроется в новом окне

Альбомы на ваш e-mail:

Альбомы

Armin van Buuren - A State of Trance 480 (2010-10-28)

Коментариев: 0
Добавлено: 29.10.2010

Armin van Buuren - A State of Trance 480 (2010-10-28)

Жанр: Trance, Progressive Trance
Радио: Di.fm [Trance Channel]
Аудио кодек: MP3
Битрейт аудио: 256 kbps
Продолжительность: 02:01:57
Размер: 223 мб.

Треклист:
01. Armin van Buuren feat. Christian Burns - This Light Between Us (Intro Trance Mix) [Armind]
02. Ronski Speed - B Sign [Euphonic]
03. Parker & Hanson - Alquimia (Andrew Bayer Remix) [Anjunabeats] [Tune Of The Week]
04. Mike Saint-Jules pres. Saint X feat. Sandel - Fight On
05. I-Vision & Gilbert Am – Believe It (Oza Remix) [Perceptive Deep]
06. Heatbeat - Trash [Vandit]
07. Zaa feat. Molly - Surrender (DJ Darq Remix)
08. JPL - Young Love [In Trance We Trust]
09. Mike Foyle & DNS Project - Cayo Norte (Lemon & Einar K Remix) [Soundpiercing]
10. Jozhy & Angel – Perfect Woman (Marc Simz vs. Aerofil Remix) [Ask4 Records]
11. Ben Nicky – Rattle [AVA]
12. Sied van Riel & Ummet Ozcan - Serendipity (Phase 2 Mix) [Reset]
13. Skytech - Planet [Coldharbour]
14. W&W & Ben Gold - Break The Rules [Captivating]
15. Element One - Everyone On Earth [Tone Diary]
16. Dart Rayne – Espada Ropera
17. Artento Divini - Timezone [High Contrast]
18. Nurettin Colak - Conception (Arctic Moon Remix) [harmonic Breeze]
19. Philippe El Sisi feat. Sue McLaren - The Last Hope [Future Sound Of Egypt] [Future Favorite]
20. The Chaser - Winter Heat (Ultimate Remix) [Shah Music]
21. Lustral - I Feel You (John O'Callaghan Dub) [Subculture]
22. Shane - Too Late To Turn (Armin van Buuren Remix) [Armind] [ASOT Radio Classic]

Скачать для ознакомления


CUE:
PERFORMER "Armin van Buuren"
TITLE "A State of Trance Episode 480 (2010-10-28)"
FILE "Armin van Buuren presents - A State of Trance Episode 480.mp3" MP3
TRACK 01 AUDIO
PERFORMER "A State of Trance"
TITLE "Intro"
INDEX 01 00:00:00
TRACK 02 AUDIO
PERFORMER "Armin van Buuren feat. Christian Burns"
TITLE "This Light Between Us (Intro Trance Mix)"
INDEX 01 00:59:13
TRACK 03 AUDIO
PERFORMER "Ronski Speed"
TITLE "B Sign"
INDEX 01 07:46:65
TRACK 04 AUDIO
PERFORMER "Parker & Hanson"
TITLE "Alquimia (Andrew Bayer Remix) [Tune Of The Week]"
INDEX 01 12:36:71
TRACK 05 AUDIO
PERFORMER "Mike Saint-Jules pres. Saint X feat. Sandel"
TITLE "Fight On"
INDEX 01 19:24:15
TRACK 06 AUDIO
PERFORMER "I Vision & Gilbert AM"
TITLE "Believe It (Oza Remix)"
INDEX 01 26:51:55
TRACK 07 AUDIO
PERFORMER "Heatbeat"
TITLE "Trash"
INDEX 01 32:56:17
TRACK 08 AUDIO
PERFORMER "Zaa feat. Molly"
TITLE "Surrende (DJ Darq Remix)"
INDEX 01 38:28:19
TRACK 09 AUDIO
PERFORMER "JPL"
TITLE "Young Love"
INDEX 01 46:01:13
TRACK 10 AUDIO
PERFORMER "Mike Foyle & DNS Project"
TITLE "Cayo Norte (Lemon & Einar K Remix)"
INDEX 01 49:48:40
TRACK 11 AUDIO
PERFORMER "Jozhy K & Angel"
TITLE "Perfect Woman (Marc Simz vs. Aerofoil Remix)"
INDEX 01 52:02:05
TRACK 12 AUDIO
PERFORMER "Ben Nicky"
TITLE "Rattle"
INDEX 01 58:28:70
TRACK 13 AUDIO
PERFORMER "Sied van Riel & Ummet Ozcan"
TITLE "Serendipity (Phase 2 Mix)"
INDEX 01 62:19:01
TRACK 14 AUDIO
PERFORMER "Skytech"
TITLE "Planet"
INDEX 01 66:41:61
TRACK 15 AUDIO
PERFORMER "W&W & Ben Gold"
TITLE "Break The Rules"
INDEX 01 70:42:17
TRACK 16 AUDIO
PERFORMER "Element One"
TITLE "Everyone On Earth"
INDEX 01 75:52:31
TRACK 17 AUDIO
PERFORMER "Dart Rayne"
TITLE "Espada Ropera"
INDEX 01 81:08:62
TRACK 18 AUDIO
PERFORMER "Artento Divini"
TITLE "Timezone"
INDEX 01 86:18:09
TRACK 19 AUDIO
PERFORMER "Nurettin Colak"
TITLE "Conception (Arctic Moon Remix)"
INDEX 01 91:09:22
TRACK 20 AUDIO
PERFORMER "Philippe El Sisi feat. Sue McLaren"
TITLE "The Last Hope [Future Favorite]"
INDEX 01 97:20:50
TRACK 21 AUDIO
PERFORMER "The Chaser"
TITLE "Winter Heat (Ultimate Remix)"
INDEX 01 103:39:05
TRACK 22 AUDIO
PERFORMER "Lustral"
TITLE "I Feel You (John O'Callaghan Dub)"
INDEX 01 108:47:28
TRACK 23 AUDIO
PERFORMER "Shane"
TITLE "Too Late To Turn (Armin van Buuren Remix) [ASOT Radio Classic]"
INDEX 01 114:57:00
TRACK 24 AUDIO
PERFORMER "A State of Trance"
TITLE "Outro"
INDEX 01 121:31:12


Оглавление  |  На верх
Оценить:
Рейтинг: 10 | 1 Последнее: 2011-05-07 15:39:37

Оглавление        Вернуться к статье

Nik:
Ваш E-Mail:
Комментарий
HTML-теги Вырезаются!!!
* Введите указанное на картинке 6 значное число
Это сделано для предотвращения регистрации роботами
 
Тема страницы:

Armin van Buuren - A State of Trance 480 (2010-10-28) скачать музыку в mp3 бесплатно, без смс и регистрации музыка, стиль, диджей 2018-04-20 00_38_56

Вход
Логин:

Пароль:


Запомнить меня
Вам нужно авторизоваться.
Забыли пароль?
Регистрация
На сайте
Гостей: 0
Пользователей: 0


10 статей
5 случайных альбомов
Использование материалов разрешается только при наличии ссылки на источник информации: www.trancewave.ru!
Для интернет-ресурсов наличие прямой активной гиперссылки www.trancewave.ru - обязательно ! © 2007-2013
Работает под управлением WebCodePortalSystem v. 6.2.01